CAF Confederation Cup | Client Game | Adrift – PC
Kyaa Super Kool Hain Hum (2012) - 12mbps 1080p WEBHD (Lovepreet1) DUS


Kyaa Super Kool Hain Hum (2012) - 12mbps 1080p WEBHD (Lovepreet1) DUS





General
Complete name                            : Kyaa Super Kool Hain Hum (2012) - 12mbps 1080p WEBHD (Lovepreet1) DUS.mp4
Format                                   : MPEG-4
Format profile                           : Base Media
Codec ID                                 : isom (isom/iso2/avc1/mp41)
File size                                : 10.9 GiB
Duration                                 : 2 h 16 min
Overall bit rate mode                    : Variable
Overall bit rate                         : 11.5 Mb/s
Writing application                      : Lavf56.40.101

Video
ID                                       : 1
Format                                   : AVC
Format/Info                              : Advanced Video Codec
Format profile                           : [email protected]
Format settings                          : CABAC / 4 Ref Frames
Format settings, CABAC                   : Yes
Format settings, RefFrames               : 4 frames
Codec ID                                 : avc1
Codec ID/Info                            : Advanced Video Coding
Duration                                 : 2 h 16 min
Bit rate                                 : 11.3 Mb/s
Nominal bit rate                         : 12.0 Mb/s
Width                                    : 1 920 pixels
Height                                   : 816 pixels
Display aspect ratio                     : 2.35:1
Frame rate mode                          : Variable
Frame rate                               : 22.439 FPS
Minimum frame rate                       : 0.080 FPS
Maximum frame rate                       : 23.981 FPS
Original frame rate                      : 23.976 (24000/1001) FPS
Color space                              : YUV
Chroma subsampling                       : 4:2:0
Bit depth                                : 8 bits
Scan type                                : Progressive
Bits/(Pixel*Frame)                       : 0.321
Stream size                              : 10.8 GiB (98%)
Writing library                          : x264 core 138

Audio
ID                                       : 2
Format                                   : AAC
Format/Info                              : Advanced Audio Codec
Format profile                           : LC
Codec ID                                 : mp4a-40-2
Duration                                 : 2 h 16 min
Bit rate mode                            : Variable
Bit rate                                 : 180 kb/s
Maximum bit rate                         : 187 kb/s
Channel(s)                               : 2 channels
Channel positions                        : Front: L R
Sampling rate                            : 48.0 kHz
Frame rate                               : 46.875 FPS (1024 SPF)
Compression mode                         : Lossy
Stream size                              : 175 MiB (2%)
Default                                  : Yes
Alternate group                          : 1


Kyaa Super Kool Hain Hum (2012) - 12mbps 1080p WEBHD (Lovepreet1) DUS
Kyaa Super Kool Hain Hum (2012) - 12mbps 1080p WEBHD (Lovepreet1) DUS
Kyaa Super Kool Hain Hum (2012) - 12mbps 1080p WEBHD (Lovepreet1) DUS
Kyaa Super Kool Hain Hum (2012) - 12mbps 1080p WEBHD (Lovepreet1) DUS
Kyaa Super Kool Hain Hum (2012) - 12mbps 1080p WEBHD (Lovepreet1) DUS
Kyaa Super Kool Hain Hum (2012) - 12mbps 1080p WEBHD (Lovepreet1) DUS
Kyaa Super Kool Hain Hum (2012) - 12mbps 1080p WEBHD (Lovepreet1) DUS
Kyaa Super Kool Hain Hum (2012) - 12mbps 1080p WEBHD (Lovepreet1) DUS
Kyaa Super Kool Hain Hum (2012) - 12mbps 1080p WEBHD (Lovepreet1) DUS


Kyaa Super Kool Hain Hum (2012) - 12mbps 1080p WEBHD (Lovepreet1) DUS

http://rapidpaid.com/4345297baffd65cc/Kyaa_Super_Kool_Hain_Hum_(2012)_-_12mbps_1080p_WEBHD_(Lovepreet1)_DUS.mp4


Kyaa Super Kool Hain Hum (2012) - 12mbps 1080p WEBHD (Lovepreet1) DUS
50

Dear visitor, you went to the site as unregistered user.
We recommend you to register or enter the site under your name.
Information
Customers are in the group Guests, can not leave comments in the news.
Adding a comment
Name:*
E-Mail:
Code:
reload, if the code cannot be seen
Enter the code: