Queen For Seven ... | The Five (UK) | Baixar toque para celular
Masti (2004) - 12mbps 1080p WEBHD (Lovepreet1) DUS



Masti (2004) - 12mbps 1080p WEBHD (Lovepreet1) DUS

A murder is committed in a town in India and the Police ask a senior policeman to deal with his matter. His name is Sikanker and he begins his investigations and after doing so, he finds that he has three suspects. Three men, who are all married, but have been involved in seducing a woman named Monica. The three men are Amar, Prem, and Meet, who all claim their innocence - but in Sikander's books - they are all guilty until they prove themselves innocent. How can they prove themselves innocent, when their very wives will refuse to speak up on their behalf?




General
Complete name                            : Masti (2004) - 12mbps 1080p WEBHD (Lovepreet1) DUS.mp4
Format                                   : MPEG-4
Format profile                           : Base Media
Codec ID                                 : isom (isom/iso2/avc1/mp41)
File size                                : 12.9 GiB
Duration                                 : 2 h 31 min
Overall bit rate mode                    : Variable
Overall bit rate                         : 12.1 Mb/s
Writing application                      : Lavf56.40.101

Video
ID                                       : 1
Format                                   : AVC
Format/Info                              : Advanced Video Codec
Format profile                           : [email protected]
Format settings                          : CABAC / 4 Ref Frames
Format settings, CABAC                   : Yes
Format settings, RefFrames               : 4 frames
Format settings, GOP                     : M=4, N=50
Codec ID                                 : avc1
Codec ID/Info                            : Advanced Video Coding
Duration                                 : 2 h 31 min
Bit rate                                 : 12.0 Mb/s
Width                                    : 1 920 pixels
Height                                   : 816 pixels
Display aspect ratio                     : 2.35:1
Frame rate mode                          : Constant
Frame rate                               : 25.000 FPS
Color space                              : YUV
Chroma subsampling                       : 4:2:0
Bit depth                                : 8 bits
Scan type                                : Progressive
Bits/(Pixel*Frame)                       : 0.306
Stream size                              : 12.7 GiB (98%)
Writing library                          : x264 core 138

Audio
ID                                       : 2
Format                                   : AAC
Format/Info                              : Advanced Audio Codec
Format profile                           : LC
Codec ID                                 : mp4a-40-2
Duration                                 : 2 h 31 min
Bit rate mode                            : Variable
Bit rate                                 : 192 kb/s
Maximum bit rate                         : 195 kb/s
Channel(s)                               : 2 channels
Channel positions                        : Front: L R
Sampling rate                            : 48.0 kHz
Frame rate                               : 46.875 FPS (1024 SPF)
Compression mode                         : Lossy
Stream size                              : 209 MiB (2%)
Default                                  : Yes
Alternate group                          : 1


Masti (2004) - 12mbps 1080p WEBHD (Lovepreet1) DUS
Masti (2004) - 12mbps 1080p WEBHD (Lovepreet1) DUS
Masti (2004) - 12mbps 1080p WEBHD (Lovepreet1) DUS
Masti (2004) - 12mbps 1080p WEBHD (Lovepreet1) DUS
Masti (2004) - 12mbps 1080p WEBHD (Lovepreet1) DUS
Masti (2004) - 12mbps 1080p WEBHD (Lovepreet1) DUS
Masti (2004) - 12mbps 1080p WEBHD (Lovepreet1) DUS
Masti (2004) - 12mbps 1080p WEBHD (Lovepreet1) DUS
Masti (2004) - 12mbps 1080p WEBHD (Lovepreet1) DUS

Masti (2004) - 12mbps 1080p WEBHD (Lovepreet1) DUS

http://rapidpaid.com/a14f34eb5d87210a/Masti_(2004)_-_12mbps_1080p_WEBHD_(Lovepreet1)_DUS.mp4


Masti (2004) - 12mbps 1080p WEBHD (Lovepreet1) DUS
60

Dear visitor, you went to the site as unregistered user.
We recommend you to register or enter the site under your name.
Information
Customers are in the group Guests, can not leave comments in the news.
Adding a comment
Name:*
E-Mail:
Code:
reload, if the code cannot be seen
Enter the code: