Seven Princess Driver | Katie Leung | Jay-Z, Kanye West, Rihanna - Run This Town
Home > Movie > Golimaar 2 Hindi Dubbed Untouched 1080p WEBHD - AVC - AAC - Ranvijay

Golimaar 2 Hindi Dubbed Untouched 1080p WEBHD - AVC - AAC - Ranvijay


13-01-2018, 07:37. Author: Maan770


Golimaar 2 Hindi Dubbed Untouched 1080p WEBHD - AVC - AAC - Ranvijay





Quote Quote:
Format : MPEG-4
Format profile : Base Media
Codec ID : isom (isom/iso2/avc1/mp41)
File size : 3.31 GiB
Duration : 2 h 30 min
Overall bit rate : 3 156 kb/s
Video
ID : 1
Format : AVC
Format/Info : Advanced Video Codec
Format profile : [email protected]
Format settings : CABAC / 2 Ref Frames
Format settings, CABAC : Yes
Format settings, RefFrames : 2 frames
Codec ID : avc1
Codec ID/Info : Advanced Video Coding
Duration : 2 h 30 min
Bit rate : 3 024 kb/s
Width : 1 920 pixels
Height : 1 080 pixels
Display aspect ratio : 16:9
Frame rate mode : Constant
Frame rate : 25.000 FPS
Color space : YUV
Chroma subsampling : 4:2:0
Bit depth : 8 bits
Scan type : Progressive
Bits/(Pixel*Frame) : 0.058
Stream size : 3.18 GiB (96%)

Audio
ID : 2
Format : AAC
Format/Info : Advanced Audio Codec
Format profile : LC
Codec ID : mp4a-40-2
Duration : 2 h 30 min
Bit rate mode : Constant
Bit rate : 126 kb/s
Channel(s) : 2 channels
Channel positions : Front: L R
Sampling rate : 44.1 kHz
Frame rate : 43.066 FPS (1024 SPF)
Compression mode : Lossy
Stream size : 135 MiB (4%)
Default : Yes

Golimaar 2 Hindi Dubbed Untouched 1080p WEBHD - AVC - AAC - Ranvijay
Golimaar 2 Hindi Dubbed Untouched 1080p WEBHD - AVC - AAC - Ranvijay
Golimaar 2 Hindi Dubbed Untouched 1080p WEBHD - AVC - AAC - Ranvijay
Golimaar 2 Hindi Dubbed Untouched 1080p WEBHD - AVC - AAC - Ranvijay
Golimaar 2 Hindi Dubbed Untouched 1080p WEBHD - AVC - AAC - Ranvijay
Golimaar 2 Hindi Dubbed Untouched 1080p WEBHD - AVC - AAC - Ranvijay
Golimaar 2 Hindi Dubbed Untouched 1080p WEBHD - AVC - AAC - Ranvijay
Golimaar 2 Hindi Dubbed Untouched 1080p WEBHD - AVC - AAC - Ranvijay
Golimaar 2 Hindi Dubbed Untouched 1080p WEBHD - AVC - AAC - Ranvijay
Golimaar 2 Hindi Dubbed Untouched 1080p WEBHD - AVC - AAC - Ranvijay
Golimaar 2 Hindi Dubbed Untouched 1080p WEBHD - AVC - AAC - Ranvijay
Golimaar 2 Hindi Dubbed Untouched 1080p WEBHD - AVC - AAC - Ranvijay
Golimaar 2 Hindi Dubbed Untouched 1080p WEBHD - AVC - AAC - Ranvijay
Golimaar 2 Hindi Dubbed Untouched 1080p WEBHD - AVC - AAC - Ranvijay

Golimaar 2 Hindi Dubbed Untouched 1080p WEBHD - AVC - AAC - Ranvijay
Buy Premium Account From My Download Links And Get Resumable Support & SUPER Fastest Speed
http://rapidpaid.com/6fd83722c583becb/Golimaar_2_Hindi_Dubbed_Untouched_1080p_WEBHD_-_AVC_-_AAC_-_Ranvijay.mp4


Golimaar 2 Hindi Dubbed Untouched 1080p WEBHD - AVC - AAC - Ranvijay

Back