Technology And Higher Education Essay1 | Schoolhouse Rock! | Arthur Kennedy
Home > Movie > Grand Masti (2013) - 12mbps 1080p Edited WEBHD (Lovepreet1) DUS

Grand Masti (2013) - 12mbps 1080p Edited WEBHD (Lovepreet1) DUS


13-01-2018, 07:38. Author: Maan770


Grand Masti (2013) - 12mbps 1080p Edited WEBHD (Lovepreet1) DUS





General
Complete name                            : Grand Masti (2013) - 12mbps 1080p Edited WEBHD (Lovepreet1) DUS.mp4
Format                                   : MPEG-4
Format profile                           : Base Media
Codec ID                                 : isom (isom/iso2/avc1/mp41)
File size                                : 7.29 GiB
Duration                                 : 1 h 33 min
Overall bit rate mode                    : Variable
Overall bit rate                         : 11.2 Mb/s
Writing application                      : Lavf56.40.101

Video
ID                                       : 1
Format                                   : AVC
Format/Info                              : Advanced Video Codec
Format profile                           : [email protected]
Format settings, CABAC                   : Yes
Format settings, RefFrames               : 4 frames
Codec ID                                 : avc1
Codec ID/Info                            : Advanced Video Coding
Duration                                 : 1 h 33 min
Bit rate                                 : 11.0 Mb/s
Nominal bit rate                         : 12.0 Mb/s
Width                                    : 1 920 pixels
Height                                   : 816 pixels
Display aspect ratio                     : 2.35:1
Frame rate mode                          : Variable
Frame rate                               : 22.836 FPS
Minimum frame rate                       : 0.083 FPS
Maximum frame rate                       : 25.000 FPS
Original frame rate                      : 25.000 FPS
Color space                              : YUV
Chroma subsampling                       : 4:2:0
Bit depth                                : 8 bits
Scan type                                : Progressive
Bits/(Pixel*Frame)                       : 0.307
Stream size                              : 7.17 GiB (98%)
Writing library                          : x264 core 138

Audio
ID                                       : 2
Format                                   : AAC
Format/Info                              : Advanced Audio Codec
Format profile                           : LC
Codec ID                                 : 40
Duration                                 : 1 h 33 min
Bit rate mode                            : Variable
Bit rate                                 : 175 kb/s
Maximum bit rate                         : 195 kb/s
Channel(s)                               : 2 channels
Channel positions                        : Front: L R
Sampling rate                            : 48.0 kHz
Frame rate                               : 46.875 FPS (1024 SPF)
Compression mode                         : Lossy
Stream size                              : 117 MiB (2%)
Default                                  : Yes
Alternate group                          : 1


Grand Masti (2013) - 12mbps 1080p Edited WEBHD (Lovepreet1) DUS
Grand Masti (2013) - 12mbps 1080p Edited WEBHD (Lovepreet1) DUS
Grand Masti (2013) - 12mbps 1080p Edited WEBHD (Lovepreet1) DUS
Grand Masti (2013) - 12mbps 1080p Edited WEBHD (Lovepreet1) DUS
Grand Masti (2013) - 12mbps 1080p Edited WEBHD (Lovepreet1) DUS
Grand Masti (2013) - 12mbps 1080p Edited WEBHD (Lovepreet1) DUS
Grand Masti (2013) - 12mbps 1080p Edited WEBHD (Lovepreet1) DUS
(Images are resized to save bandwidth, click on it to view it in full size)



Grand Masti (2013) - 12mbps 1080p Edited WEBHD (Lovepreet1) DUS

http://rapidpaid.com/79f08de713febc70/Grand_Masti_(2013)_-_12mbps_1080p_Edited_WEBHD_(Lovepreet1)_DUS.mp4


Grand Masti (2013) - 12mbps 1080p Edited WEBHD (Lovepreet1) DUS

Back